Vùng đất thần thánh
The Lands Of The Gods 3D (2014)

Lượt xem: 1 538
Vùng đất thần thánh
The Lands Of The Gods 3D (2014)
, 3.0 out of 5 based on 3 ratings
GD Star Rating
loading...
Đạo diễn: Louis Clichy, Alexandre Astier
Thể loại: Animation, Adventure, Comedy
Diễn viên: Roger Carel, Lorànt Deutsch, Laurent Lafitte, Alexandre Astier
Kịch bản: Alexandre Astier (screenplay), Jean-Rémi François (collaboration), René Goscinny (comic book), Philip LaZebnik (collaboration), Albert Uderzo (comic book)
Năm sản xuất: 2014
Thời gian: 85 min
Đánh giá: 7.0/10 (theo IMDb)
Quốc gia: France, Belgium
Ngôn ngữ: French


The Lands Of The Gods 3D (2014)

Nội dung:

Asterix: Vùng Đất Thần Thánh, một bộ phim hoạt hình do Mỹ sản xuất kể về câu chuyện của 2 chiến binh La Mã Asterix và Obelix với nỗ lực cứu ngôi làng lịch sử mang nhiều dấu ấn với họ khỏi tay tên quan Julius Caesar sau khi ý tưởng xây dựng một khu sống tập thể sang chảnh và ngôi làng Gô Loa hiện đang nằm trong mảnh đất mà hắn đang nhắm tới. Caesar bắt đầu cho kế hoạch phá hoại của hắn bằng nhiều cách khiến Asterix và Obelix nhiều lúc phải rơi vào hoản cảnh khó khăn. Phim dựa trên bộ truyện tranh hoạt hình nổi tiếng từng thu hút nhiều bạn đọc trên toàn Thế Giới về cuộc phiêu lưu của Asterix và Obelix.

3D_LTDUC\ASTERIX 2014 3D_1080p_Haft.SBS_AudioVie.mkv
Format : Matroska
File size : 10.9 GiB
Duration : 1h 25mn
Overall bit rate : 18.3 Mbps
Movie name : ASTERIX 2014 3D_LTDUC.Title1
Encoded date : UTC 2015-04-26 18:01:22
Writing application : DVDFab
Writing library : libebml v0.7.8 + libmatroska v0.8.1

Video
ID : 1
Format : AVC
Format/Info : Advanced Video Codec
Format profile : [email protected]
Format settings, CABAC : Yes
Format settings, ReFrames : 2 frames
Muxing mode : Container [email protected]
Codec ID : V_MPEG4/ISO/AVC
Duration : 1h 25mn
Bit rate : 17.5 Mbps
Width : 1 920 pixels
Height : 1 080 pixels
Display aspect ratio : 16:9
Frame rate : 23.976 fps
Color space : YUV
Chroma subsampling : 4:2:0
Bit depth : 8 bits
Scan type : Progressive
Bits/(Pixel*Frame) : 0.352
Stream size : 10.5 GiB (96%)
Writing library : x264 core
Color primaries : BT.709-5, BT.1361, IEC 61966-2-4, SMPTE RP177
Transfer characteristics : BT.709-5, BT.1361
Matrix coefficients : BT.709-5, BT.1361, IEC 61966-2-4 709, SMPTE RP177

Audio
ID : 2
Format : AC-3
Format/Info : Audio Coding 3
Mode extension : CM (complete main)
Codec ID : A_AC3
Duration : 1h 25mn
Bit rate mode : Constant
Bit rate : 448 Kbps
Channel(s) : 6 channels
Channel positions : Front: L C R, Side: L R, LFE
Sampling rate : 48.0 KHz
Bit depth : 16 bits
Stream size : 274 MiB (2%)
Language : Vietnamese

Chọn phiên bản và click vào liên kết bên dưới để tải về